#TITLE:Blood On Fire;
#SUBTITLE:;
#ARTIST:AAA;
#TITLETRANSLIT:Blood On Fire;
#SUBTITLETRANSLIT:;
#ARTISTTRANSLIT:AAA;
#CREDIT:;
#BANNER:banner.png;
#BACKGROUND:BLOOD on FIRE.png;
#LYRICSPATH:BLOOD on FIRE.lrc;
#CDTITLE:DJ Pop.png;
#MUSIC:Blood on Fire.mp3;
#OFFSET:-0.066;
#SAMPLESTART:69.140;
#SAMPLELENGTH:20.000;
#SELECTABLE:YES;
#DISPLAYBPM:154.980;
#BPMS:0.000=154.980,28.000=232.470,28.750=77.490,29.125=232.470,30.250=77.490,30.500=232.470,31.250=77.490,31.500=232.470,32.250=77.490,32.750=232.470,34.250=77.490,34.500=232.470,35.250=77.490,35.500=232.470,36.250=77.490,36.750=232.470,38.250=77.490,38.500=232.470,39.250=77.490,39.500=232.470,40.250=77.490,40.500=232.470,41.250=77.490,41.500=232.470,42.250=77.490,42.500=232.470,43.250=77.490,43.625=232.470,44.000=154.980,71.500=232.470,72.250=77.490,72.500=154.980,75.500=232.470,75.875=77.490,76.000=154.980,171.500=232.470,172.250=77.490,172.500=154.980,175.500=232.470,176.250=77.490,176.500=154.980,203.500=232.470,204.250=77.490,204.500=154.980,205.500=232.470,206.250=77.490,206.500=154.980,207.500=232.470,208.250=77.490,208.500=154.980,209.500=232.470,210.250=77.490,210.500=154.980,211.500=232.470,211.875=77.490,212.000=154.980,216.000=232.470,216.750=77.490,217.000=154.980,220.000=232.470,220.750=77.490,221.125=232.470,222.250=77.490,222.500=232.470,223.250=77.490,223.500=232.470,224.250=77.490,224.750=232.470,226.250=77.490,226.500=232.470,227.250=77.490,227.500=232.470,228.250=77.490,228.750=232.470,230.250=77.490,230.500=232.470,231.250=77.490,231.500=232.470,232.250=77.490,232.500=232.470,233.250=77.490,233.500=232.470,234.250=77.490,234.500=232.470,235.250=77.490,235.625=232.470,236.000=154.980,308.000=232.470,309.500=77.490,310.000=154.980,312.000=77.490,312.250=232.470,314.500=77.490,315.250=232.470,316.750=77.490,317.250=232.470,318.750=77.490,319.000=232.470,319.750=77.490,320.000=232.470,320.750=77.490,321.500=232.470,323.750=77.490,324.000=154.980,328.000=77.490,328.250=232.470,330.500=77.490,331.250=232.470,333.500=77.489,334.000=154.980,335.500=232.470,336.250=77.490,336.500=154.980,337.500=232.470,338.250=77.490,338.500=154.980,339.500=232.470,340.250=77.490,340.500=154.980,341.500=232.470,342.250=77.490,342.500=154.980,343.500=232.470,343.875=77.490,344.000=154.980,352.000=77.490,352.250=232.470,353.000=154.980,375.500=232.470,376.250=77.490,376.500=154.980,377.500=232.470,378.250=77.490,378.500=154.980,379.500=232.470,380.250=77.490,380.500=154.980,381.500=232.470,382.250=77.490,382.500=154.980,383.500=232.470,383.875=77.490,384.000=154.980,415.500=232.470,416.250=77.490,416.500=154.980,417.500=232.470,418.250=77.490,418.500=154.980,419.500=232.470,420.250=77.490,420.500=154.980,421.500=232.470,422.250=77.490,422.500=154.980,423.500=232.470,423.875=77.490,424.000=154.980,435.000=232.470,435.750=77.490,436.000=154.980,495.500=232.470,496.250=77.490,496.500=154.980,499.500=232.470,499.875=77.490,500.000=154.980,504.000=77.490,504.250=232.470,506.500=77.490;
#STOPS:;
#BGCHANGES:2.840=BLOOD on FIRE.avi=1.000=0=0=0,
99999=-nosongbg-=1.000=0=0=0 // don't automatically add -songbackground-
;
// cache tags:
#FIRSTBEAT:20.000;
#LASTBEAT:519.500;
#SONGFILENAME:Songs/Music V.I.P ^_^/Blood On Fire/BLOOD on FIRE.sm;
#HASMUSIC:1;
#HASBANNER:1;
#MUSICLENGTH:206.845;
// end cache tags

//---------------dance-single - Keyboard----------------
#NOTES:
     dance-single:
     Keyboard:
     Edit:
     14:
     1.000,1.000,1.000,1.000,0.824,1185.000,530.000,1049.000,0.000,633.000:
0000
0000
0000
0000
,
0000
0000
0000
0000
,
0000
0000
0000
0000
,
0000
0000
0000
0000
,
0000
0000
0000
0000
,
0010
0100
0010
0000
1000
0000
0001
0000
0100
0010
0100
0000
0001
0000
1000
0100
,
0010
0000
0001
0000
1000
0100
0010
0100
0001
1000
0010
0100
1000
0001
0010
0000
,
0222
0000
0000
0333
0000
0000
0222
0000
0000
0333
2220
0000
0000
3330
0222
0000
,
0000
0333
0000
0000
0000
0000
0222
0000
0000
0333
2220
0000
0000
3330
0222
0000
,
0000
0333
0000
0000
0000
0000
0222
0000
0000
0333
2220
0000
0000
3330
0222
0000
,
0000
0333
2220
0000
0000
3330
0222
0000
0000
0333
2220
0000
0000
0000
0000
3330
,
1222
0333
1000
0222
1333
2220
3331
0222
,
1333
0000
1000
0222
1333
2220
3331
1222
,
1333
0000
1000
0222
1333
2220
3331
0222
,
1333
0000
2220
0000
3331
0000
0222
0000
1000
0000
0000
0000
1000
0000
0000
0333
,
1102
0010
1100
0010
0123
1000
0101
1000
,
0231
1000
0011
1000
2310
0001
0110
0001
,
3210
0001
1010
0001
1320
0001
1100
1232
,
0000
1010
1000
1010
1000
1010
1000
1313
,
0002
0203
2300
3020
0230
0302
0023
0230
2300
3020
0032
2003
3020
0032
0203
2300
,
3221
0000
1000
0330
0011
0000
1220
0330
0221
0330
2210
3300
0101
0000
0010
0000
,
1220
0000
0001
0330
1100
0000
0221
0330
1220
0330
0122
0033
1010
0000
0001
0000
,
2210
0000
0001
3300
0110
0000
2201
3300
2210
3300
2201
3300
1010
0000
0100
0000
,
1022
0000
0100
0033
1010
0000
0122
0033
1022
0033
0122
0033
1010
0000
0001
0000
,
1220
0000
0001
0330
1010
0000
0221
0330
1220
0330
2201
3300
0110
0000
1000
0000
,
0221
0000
1000
0330
0101
0000
1220
0330
0221
0330
1022
0033
0110
0000
0001
0000
,
2210
0000
0001
3300
1010
0000
2201
3300
2210
3300
2201
3300
0110
0000
1000
0000
,
2022
3200
2300
3233
2300
3200
2322
3233
2322
3233
2322
3233
2300
3200
2300
3200
,
1322
0000
2233
3300
2200
3300
0022
0000
2233
3300
0220
0000
2332
3003
0022
0000
,
2233
3300
2200
3300
2200
3300
0022
0000
2233
3300
0220
0000
2332
3003
0022
0000
,
2233
3300
2200
3300
2200
3300
0022
0000
2233
3300
0220
0000
2332
3003
0022
0000
,
2233
3300
0220
0000
2332
3003
2200
0000
0011
0000
0011
0000
0011
0000
0011
3311
,
2201
0000
3322
0033
0022
0033
2200
0000
3322
0033
0220
0000
2332
3003
2200
0000
,
3322
0033
0022
0033
0022
0033
2200
0000
3322
0033
0220
0000
2332
3003
2200
0000
,
3322
0033
0022
0033
0022
0033
2200
0000
3322
0033
0220
0000
2332
3003
2200
3300
,
0122
1033
0122
1033
0122
1033
0122
1000
0100
1000
0100
1000
0100
1000
0133
1000
,
1222
0003
0000
0002
1003
0000
0002
0000
1003
0000
0002
0003
1002
0000
0003
0330
,
2122
3000
0000
2000
3100
0000
2000
0000
3100
0000
2000
3000
2100
0000
3000
0033
,
2221
0030
0000
0020
0031
0000
0020
0000
0031
0000
0020
0030
0021
0000
0030
3300
,
2022
3233
2322
3233
2322
3233
2322
3233
2322
3233
2322
3233
2322
3200
2300
3233
,
1322
0000
0100
0000
1000
0000
0100
0000
1000
0000
0100
0000
1000
0000
0100
0033
,
2210
0000
0001
0000
0010
0000
0001
0000
0010
0000
0001
0000
0010
0000
0001
3300
,
1022
0033
0220
0330
2201
3300
1022
0033
0220
0330
2201
3300
1022
0033
2201
0000
,
0000
3300
0221
1330
0221
1000
0001
1000
0001
1000
0001
1000
0001
1330
0112
0000
,
0000
0000
0110
0000
1100
0000
0020
0230
2300
3020
0230
2300
3020
0230
2300
3023
,
1231
0010
1000
0001
0310
1000
0201
0010
1300
0001
0210
1000
0301
0010
1200
0001
,
0310
0001
2100
3010
2001
0100
3010
0001
2100
3010
2001
0100
0010
0001
0100
0001
,
3120
0031
1020
0100
0031
1000
0120
0001
1030
0100
0021
1000
0130
0001
1020
0100
,
0002
2003
3200
0302
2003
3200
0302
2003
3232
2300
3020
0233
2302
3020
0230
2303
,
3211
1000
0001
0010
1300
0001
0210
1000
0301
0010
1200
0001
0310
1000
0201
0010
,
1300
0001
2010
3100
2001
0010
3100
0001
2010
3100
2001
0010
0001
3100
1012
0000
,
0000
0000
1100
0000
1100
0003
1121
0000
0000
0000
1001
0000
1001
0030
1211
0000
,
0000
0000
0011
0000
0011
0300
2111
0000
0000
0000
0110
0000
0110
3000
1112
0000
,
2100
3020
2130
3020
2130
3020
2130
3020
2130
3020
2130
3020
2130
3020
2130
3023
,
1131
0000
0000
0000
0000
0000
0001
0000
1000
0000
0101
1010
0101
1010
0101
1000
,
0222
0333
0000
0222
0333
2220
3330
0222
,
0333
0000
0000
0222
0333
2220
3330
0222
,
0333
0000
0000
0222
0333
2220
3330
0222
,
0333
0000
2220
0000
3330
0000
0222
0000
0333
0000
2220
0000
0000
0000
0000
3330
,
1022
0000
2233
3300
2200
3300
0022
0000
2233
3300
0220
0000
2332
3003
0022
0000
,
2233
3300
2200
3300
2200
3300
0022
0000
2233
3300
0220
0000
2332
3003
0022
0000
,
2233
3300
2200
3300
2200
3300
0022
0000
2233
3300
0220
0000
2332
3003
0022
0000
,
2233
3300
0220
0000
2332
3003
0022
0000
2233
3300
1022
0000
0100
0000
1000
0133
,
1022
0000
2233
3300
2200
3300
0022
0000
2233
3300
0220
0000
2332
3003
0022
0000
,
2233
3300
2200
3300
2200
3300
0022
0000
2233
3300
0220
0000
2332
3003
0022
0000
,
2233
3300
2200
3300
2200
3300
0022
0000
2233
3300
0220
0000
2332
3003
0022
0000
,
2233
3300
0220
0000
2332
3003
1122
0033
2022
3233
2322
3200
2300
3200
2300
3233
,
2311
3200
0320
2030
3201
0320
2030
3200
0321
2030
3200
0320
2031
3200
0320
0032
,
0123
2030
3200
0320
1032
0023
0230
2300
3102
0023
0230
2300
3102
0023
0230
2300
,
3001
2000
3201
0000
1320
0032
1000
0000
,
1023
0000
0032
0000
1023
0000
0230
0000
0001
0000
2300
3200
2301
0000
0000
0000
,
3110
0000
0002
0023
0231
2300
3200
0300
1002
0023
0230
2300
3201
0300
0002
0023
,
1032
0023
0032
0023
1230
0302
0023
0230
2301
3200
2300
3020
0132
0203
0321
2030
,
3000
0000
0102
0000
1000
0023
1231
2300
3002
0000
0100
0023
0231
2300
3112
0000
,
0000
0203
2310
3200
1302
0023
1100
0000
0230
0302
1000
0203
1320
0000
0101
2030
,
3102
0023
0132
0023
0132
0023
1032
0203
1302
0203
1302
0203
1320
0230
1321
0230
,
1320
0230
0321
2030
3121
2030
3021
2030
3211
2300
3210
0300
1012
0000
0203
2300
,
3112
0000
0000
0000
0000
0000
0000
0000
0000
0000
2223
3330
2022
3033
2202
3303
,
0000
1000
0000
0000
2222
0000
0000
0000
0000
0000
3333
0000
0000
0000
0000
0000
,
2220
0000
0000
0000
3330
0000
0000
0000
2220
0000
0000
3330
0222
0000
0000
0333
,
0222
0333
0000
0000
,
1112
0203
0320
2030
3020
0230
0302
2003
3200
0320
2131
3002
2113
3020
1231
0302
,
0003
1000
0000
0000
2222
0000
0000
0000
0000
0000
3333
0000
0000
0000
0000
0000
,
2220
0000
0000
3330
0000
0000
0010
2101
,
0000
0000
0000
0000
0001
3000
1210
0000
0000
0000
0000
0000
1000
0300
0121
0000
,
0000
0000
0000
0000
0100
0030
1012
0000
0000
0000
0000
0000
0010
0003
2101
0000
,
0002
0023
0230
0302
0023
0230
0302
0023
0230
0302
0023
0230
0302
0023
0230
3320
,
1232
2300
3020
0230
2300
3020
0230
2300
3023
0230
2302
3023
0232
2303
3022
0233
,
0300
1000
0000
0000
1111
0001
1020
0100
0031
1000
0120
0001
1030
0100
0021
1000
,
0130
1000
0012
0103
1002
0010
0103
1000
0012
0103
1002
0010
0100
1000
0010
1000
,
0213
1300
0201
0010
1300
0001
0210
1000
0301
0010
1200
0001
0310
1000
0201
0010
,
2000
3002
0023
2030
3012
2003
3002
0023
2332
0023
0230
3302
2023
0230
0320
3032
,
1123
0001
1000
0100
0031
1000
0120
0001
1030
0100
0021
1000
0130
0001
1020
0100
,
0031
1000
0102
0013
1002
0100
0013
1000
0102
0013
1002
0100
1000
0013
2101
0000
,
0000
0000
0011
0000
0011
3000
1211
0000
0000
0000
1001
0000
1001
0300
1121
0000
,
0000
0000
1100
0000
1100
0030
1112
0000
0000
0000
0110
0000
0110
0003
2111
0000
,
0012
0203
0312
0203
0312
0203
0312
0203
0312
0203
0312
0203
0312
0203
0312
3203
,
1312
0100
0010
1000
0110
1000
0100
0010
1000
0100
0010
1000
0110
1000
0100
0013
,
1201
0010
1000
0001
0310
1000
0201
0010
1300
0001
0210
1000
0301
0010
1200
0001
,
0310
0001
2100
3010
2001
0100
3010
0001
2100
3010
2001
0100
0010
0001
0100
0001
,
3120
0031
1020
0100
0031
1000
0120
0001
1030
0100
0021
1000
0130
0001
1020
0100
,
0002
2003
3200
0302
2003
3200
0302
2003
3232
2300
3020
0233
2302
3020
0230
2303
,
3211
1000
0001
0010
1300
0001
0210
1000
0301
0010
1200
0001
0310
1000
0201
0010
,
1300
0001
2010
3100
2011
0100
3001
0010
2100
3001
2010
0100
0010
3100
1012
0000
,
0000
0000
1100
0000
1100
0003
1121
0000
0000
0000
1001
0000
1001
0030
1211
0000
,
0000
0000
0011
0000
0011
0300
2111
0000
0000
0000
0110
0000
0110
3000
1112
0000
,
2100
3020
2130
3020
2130
3020
2130
3020
2130
3020
2130
3020
2130
3020
2130
3023
,
2231
0320
0032
3203
2321
0230
0320
3032
2203
3320
2032
0203
0321
3230
2320
3032
,
1223
0001
1000
0001
1000
0001
1000
0001
1000
0001
1000
0331
1110
0000
0000
0000
,
1102
0010
1100
0010
1023
0001
1100
0001
,
1230
0001
1010
0001
2300
0001
0110
0011
,
3102
0010
1100
0010
0123
0001
1100
0001
,
1230
0000
0001
0000
1010
0000
0001
0000
1000
0000
0011
0000
1010
0000
1011
0010
,
2311
0100
0011
0100
3201
1000
0011
1000
,
0321
1000
0101
1000
0132
1000
0110
1100
,
2013
0100
0011
0100
3210
1000
0011
1000
,
0321
0000
1000
0000
0101
0000
1000
0000
0001
0000
1100
0000
0101
0000
1101
0100
,
2232
3300
0010
2200
3323
2200
3301
2002
,
3233
0000
1000
0022
2333
0022
0133
0220
,
3332
0000
0010
2200
3323
2200
3301
2002
,
3233
0000
0022
0000
1033
0000
2002
0000
0000
0000
0010
0000
0010
0000
3013
0010
,
2322
0033
0100
0022
3233
0022
1033
2002
,
3323
0000
0001
2200
3332
2200
3310
0220
,
2333
0000
0100
0022
3233
0022
1033
2322
,
0000
0000
0100
0000
0100
0000
0100
0000
0100
0000
0100
0000
0100
3033
1111
0000
,
0002
2003
3020
0230
2300
3020
0230
0302
0023
0230
2300
3002
0203
0320
0032
2003
,
3000
0110
0000
0000
2222
0000
0000
0000
0000
0000
0000
0000
0000
0000
0000
0000
,
0000
0000
0000
0000
,
0000
0000
0000
0000
,
0000
0000
0000
0000
0000
0000
0000
3333
;

//---------------dance-single - Keyboard----------------
#NOTES:
     dance-single:
     Keyboard:
     Challenge:
     12:
     1.000,1.000,1.000,0.566,0.607,998.000,428.000,117.000,0.000,249.000:
0000
0000
0000
0000
,
0000
0000
0000
0000
,
0000
0000
0000
0000
,
0000
0000
0000
0000
,
0000
0000
0000
0000
,
1000
0001
1000
0000
0010
0000
0100
0000
0001
1000
0001
0000
0100
0000
0010
0001
,
1000
0000
0100
0000
0010
0001
1000
0001
0100
0010
1000
0001
0010
0100
1000
0000
,
0111
0000
0000
0111
0000
1110
0000
0111
,
0000
0000
0000
0111
0000
1110
0000
0111
,
0000
0000
0000
0111
0000
1110
0000
0111
,
0000
1110
0000
0111
0000
2220
0000
3330
,
1011
0000
1000
0011
1000
0110
1000
0011
,
1000
0000
1000
0011
1000
0110
1000
1011
,
1000
0000
1000
0011
1000
0110
1000
0011
,
1000
0110
1000
0022
1000
0000
1000
0033
,
0112
1100
0123
1100
,
0231
0011
2301
0011
,
3201
0000
1001
0000
0321
0000
1001
2231
,
0000
0001
0001
0001
0001
0001
0001
3311
,
0001
0100
1000
0010
0100
0001
0010
0100
1000
0010
0001
1000
0010
0001
0100
1000
,
0111
1000
0011
1110
0111
1110
0101
0010
,
1110
0001
1100
0111
1110
0111
1010
0001
,
1110
0001
0110
1101
1110
1101
1010
0100
,
1011
0100
1010
0111
1011
0111
1010
0001
,
1110
0001
1010
0111
1110
1101
0110
1000
,
0111
1000
0101
1110
0111
1011
0110
0001
,
1110
0001
1010
1101
1110
1101
0110
1000
,
0111
1000
0101
1011
0111
1011
0110
1000
,
0111
1100
1100
0011
1100
0110
1001
0011
,
1100
1100
1100
0011
1100
0110
1001
0011
,
1100
1100
1100
0011
1100
0110
1001
0011
,
1100
0000
0110
0000
1001
0000
2200
0000
0001
0000
0010
0000
0001
0000
3310
0001
,
1110
0011
0011
1100
0011
0110
1001
1100
,
0011
0011
0011
1100
0011
0110
1001
1100
,
0011
0011
0011
1100
0011
0110
1001
1100
,
0111
1011
0111
1022
0100
1000
0100
1033
,
1221
0000
0001
0000
0001
0000
0001
0330
,
1022
0000
1000
0000
1000
0000
1000
0033
,
2201
0000
0001
0000
0001
0000
0001
3300
,
1011
0110
1110
0011
1110
0110
1011
0000
,
1122
0000
0100
0000
0100
0000
0100
0033
,
2210
0000
0010
0000
0010
0000
0010
3300
,
1011
0110
1101
1011
0110
1101
1011
1101
,
0000
0111
1220
0001
1000
0001
1330
0112
,
0000
0000
0110
0000
1100
0000
0010
0100
1000
0010
0100
1000
0010
0100
1000
0013
,
1101
0010
1000
0001
0110
1000
0001
0010
1100
0001
0010
1000
0101
0010
1000
0001
,
1010
0001
0100
0010
1001
0100
0010
0001
1100
0010
0001
0100
1010
0001
0100
0001
,
0110
0001
1000
0100
0011
1000
0100
0001
1010
0100
0001
1000
0110
0001
1000
0100
,
0011
1000
0100
0001
1010
0100
0001
1000
0110
1000
0011
0100
1001
0010
0101
1000
,
0111
1000
0001
0010
1100
0001
0010
1000
0101
0010
1000
0001
0110
1000
0001
0010
,
1100
0001
0010
0100
1001
0010
0100
0001
1010
0100
0001
0010
1001
0100
1012
0000
,
0000
0100
0100
1123
0000
1000
1000
1231
,
0000
0001
0001
2311
0000
0010
0010
3112
,
1000
1000
1000
1000
1000
1000
1000
1003
,
0111
0000
0000
0000
0000
0000
1000
0000
0100
0000
0010
0001
1000
0100
0010
1000
,
0111
0000
0000
0111
0000
1110
0000
0111
,
0000
0000
0000
0111
0000
1110
0000
0111
,
0000
0000
0000
0111
0000
1110
0000
0111
,
0000
1110
0000
0111
0000
2220
0000
3330
,
1011
1100
1100
0011
1100
0110
1001
0011
,
1100
1100
1100
0011
1100
0110
1001
0011
,
1100
1100
1100
0011
1100
0110
1001
0011
,
1100
0000
0110
0000
1001
0000
0011
0000
1100
0000
1022
0000
0100
0000
1033
0100
,
1011
1100
1100
0011
1100
0110
1001
0011
,
1100
1100
1100
0011
1100
0110
1001
0011
,
1100
1100
1100
0011
1100
0110
1001
0011
,
1100
0000
0110
0000
1001
0000
1111
0000
1011
0100
1022
0100
1000
0100
1033
0100
,
1001
0100
0010
1000
0100
0010
1000
0100
0010
1000
0100
0010
1000
0100
0010
0001
,
0010
1000
0100
0010
0001
0010
0100
1000
0001
0010
0100
1000
0001
0010
0100
1000
,
0000
1000
0200
0000
0310
0002
0000
0000
,
0013
0000
0001
0000
0010
0000
0200
0000
0000
0000
1300
0100
2000
0000
0000
0000
,
3010
0000
0001
0010
0100
1000
0100
0000
0001
0010
0100
1000
0100
0000
0001
0010
,
0001
0010
0100
0001
0010
0100
1000
0001
0010
1000
0100
0010
0001
0100
0011
1000
,
0000
0000
0002
0000
0000
0013
1100
0010
0002
0000
0000
0013
0100
1000
0012
0000
,
0000
0103
1000
0100
0001
0020
1000
0000
0130
0001
0000
0100
0020
0000
0100
1030
,
0001
0010
0001
0010
0001
0010
0001
0100
0001
0100
0001
0100
0010
0100
1010
0100
,
0010
0100
0010
1000
0011
1000
0010
1000
0101
1000
0100
0000
0011
0000
0100
1000
,
0012
0000
0000
0000
0000
1103
0110
0011
,
0000
1000
0000
0000
2222
0000
0000
0000
0000
0000
3333
0000
0000
0000
0000
0000
,
1110
0000
1110
0111
,
0111
0000
0000
0000
,
1011
0100
0010
1000
0010
0100
0001
1000
0100
0010
1100
0001
1100
0010
1100
0001
,
0000
1000
0000
0000
2222
0000
0000
0000
0000
0000
3333
0000
0000
0000
0000
0000
,
1110
0000
0000
0000
0000
0000
0010
2100
,
0000
0000
0001
3210
0000
0000
1000
0321
,
0000
0000
0000
0000
0100
0000
1032
0000
0000
0000
0000
0000
0010
0003
2100
0000
,
0000
0000
0000
0000
,
3102
0000
0000
0000
0000
1103
0110
0011
,
0000
1000
0000
0000
1110
0001
1000
0100
0011
1000
0100
0001
1010
0100
0001
1000
,
0101
1000
0010
0100
1001
0010
0100
1000
0011
0100
1000
0010
0101
1000
0010
1000
,
0110
1000
0001
0010
1100
0001
0010
1000
0101
0010
1000
0001
0110
1000
0001
0010
,
1100
0001
0010
1000
0101
0010
1000
0001
0110
0001
1100
0010
1001
0100
1010
0001
,
1110
0001
1000
0100
0011
1000
0100
0001
1010
0100
0001
1000
0110
0001
1000
0100
,
0011
1000
0100
0010
1001
0100
0010
1000
0101
0010
1000
0100
1001
0010
2101
0000
,
0000
0010
0010
3211
0000
0001
0001
1321
,
0000
1000
1000
1132
0000
0100
0100
2113
,
0001
0001
0001
0001
0001
0001
0001
3001
,
0012
1000
0100
0010
1000
0100
0010
1000
0100
0010
1000
0100
0010
1000
0103
0010
,
1101
0010
1000
0001
0110
1000
0001
0010
1100
0001
0010
1000
0101
0010
1000
0001
,
1010
0001
0100
0010
1001
0100
0010
0001
1100
0010
0001
0100
1010
0001
0100
0001
,
0110
0001
1000
0100
0011
1000
0100
0001
1010
0100
0001
1000
0110
0001
1000
0100
,
0011
1000
0100
0001
1010
0100
0001
1000
0110
1000
0011
0100
1001
0010
0101
1000
,
0111
1000
0001
0010
1100
0001
0010
1000
0101
0010
1000
0001
0110
1000
0001
0010
,
1100
0001
0010
0100
1001
0010
0100
0001
1010
0100
0001
0010
1001
0100
1012
0000
,
0000
0100
0100
1123
0000
1000
1000
1231
,
0000
0001
0001
2311
0000
0010
0010
3112
,
1000
1000
1000
1000
1000
1000
1000
1003
,
1111
1111
1111
1111
,
2222
0000
0000
0000
0000
3333
1111
0000
,
1012
1100
1023
1100
,
0231
0000
0011
0000
2301
0000
0011
0001
,
3102
1100
0123
1100
,
0231
0000
0011
0000
0001
0000
0011
0001
,
2311
0101
3201
0011
,
1320
0000
1100
0000
1032
0000
1100
1000
,
2013
0011
3210
0011
,
1320
0000
1100
0000
1000
0000
1100
1000
,
1132
0000
0000
1100
0023
1100
0000
1001
,
0230
0000
0000
0011
2300
0011
0000
0110
,
3002
0000
0000
1100
0023
1100
0000
1001
,
0230
0011
0000
2002
0000
0000
0000
3003
,
2311
0000
0000
0011
3200
0011
0000
1001
,
0320
0000
0000
1100
0032
1100
0000
0110
,
2003
0000
0000
0011
3200
0011
0000
2322
,
0000
0100
0100
0100
0100
0100
3133
1111
,
0001
0100
1000
0010
0100
1000
0010
0001
1000
0010
0100
0001
0010
1000
0001
0100
,
0000
1001
0000
0000
2222
0000
0000
0000
0000
0000
0000
0000
0000
0000
0000
0000
,
0000
0000
0000
0000
,
0000
0000
0000
0000
,
0000
0000
0000
0000
0000
0000
0000
3333
;

//---------------dance-single - Dance Pad----------------
#NOTES:
     dance-single:
     Dance Pad:
     Hard:
     10:
     0.773,0.973,0.856,0.798,0.314,777.000,177.000,165.000,0.000,0.000:
0000
0000
0000
0000
,
0000
0000
0000
0000
,
0000
0000
0000
0000
,
0000
0000
0000
0000
,
0000
0000
0000
0000
,
0000
0000
0000
0000
,
0000
0000
0000
0000
,
1001
0000
0000
0110
0000
1001
0000
0110
,
0000
0000
0000
1001
0000
0110
0000
1001
,
0000
0000
0000
0110
0000
1001
0000
0110
,
0000
1001
0000
0110
0000
2002
0000
3003
,
1001
0000
1000
0001
1000
0010
1000
0001
,
1000
0000
0001
1000
0001
0100
0001
1000
,
0001
0000
1000
0001
1000
0010
1000
0001
,
1000
0010
1000
0002
1000
0000
1000
0003
,
1002
0010
0023
0100
,
0230
1000
2300
0001
,
3002
0000
0010
0000
0023
0000
0100
0230
,
0000
1000
1000
1000
1000
1000
1300
1100
,
0001
0010
0100
1000
0001
0010
0100
1000
0001
0010
0100
1000
0001
0010
0100
1000
,
0001
0000
1000
0010
1000
0000
0100
0000
0010
0000
0002
0000
1003
0000
0100
0000
,
0020
0000
0230
0000
1300
0001
0100
0020
,
1030
0000
0001
0100
0001
1000
0010
2000
,
3001
0010
0100
0000
0000
0000
2000
0000
0000
0000
3010
0000
0200
0000
0000
0000
,
0301
0000
1000
0010
1000
0000
0100
0000
2000
0000
0000
0000
3001
0000
0010
0000
,
0001
0000
0100
0000
0002
0000
0000
0000
1003
0000
0100
0010
0100
0000
2000
0000
,
3001
0010
0100
2000
3010
0100
0001
2000
,
3010
0000
0100
0000
0010
0000
1000
0002
0000
0000
0103
0000
0200
0000
0310
1000
,
0010
0000
0100
0000
1001
0000
0010
0100
0000
0010
0100
0000
1001
0000
0010
0000
,
1000
0000
0001
0000
0100
0000
1001
0000
0001
0100
0010
1000
0001
0000
0100
0010
,
1000
0100
0010
0000
1001
0000
0001
0010
0100
0000
2001
0000
0000
0000
3000
0000
,
1100
1100
0000
0011
0011
0000
1000
0100
0010
0000
0001
0000
2020
0000
3030
0000
,
0101
0000
1000
0000
0010
0000
0100
0010
0000
1000
0001
0100
0010
0000
1000
0000
,
0001
0000
1000
0100
0000
0010
0001
1000
0100
0010
0001
1000
0000
0100
0000
0000
,
0011
0110
1100
1001
0101
0110
1010
1001
,
0010
0100
0001
1000
0010
0100
0001
1000
0010
0000
0100
0000
1001
0000
0010
0100
,
0010
0000
1000
0000
0001
0000
0200
0000
0000
0000
0320
0000
0000
0000
1030
0100
,
1000
0000
0001
0000
0010
0000
0001
0000
0020
0000
0000
0000
0130
0000
1000
0001
,
1000
0010
0100
0002
0000
2003
3010
0000
,
2200
3300
0022
0000
0000
0000
0033
2000
,
3200
0320
0000
0032
0000
2003
3020
2030
,
0001
0000
0001
0000
3001
0010
0100
1000
,
0001
0100
0010
1000
0100
0010
0001
1001
,
0000
0110
0220
0000
0000
0000
0330
1002
,
0000
0010
0100
0000
1003
0100
0010
0001
,
1000
0000
0022
0033
2200
3300
0101
1010
,
0000
0220
0000
0000
0330
0001
1000
0010
,
0100
0001
0010
0100
1000
0101
0000
2020
,
0000
3030
0110
0000
0001
0010
0100
1000
,
0001
0000
2200
3300
0022
0033
1010
0101
,
0000
0220
0000
0000
0330
1000
0001
2020
,
0000
3030
0110
0202
0000
0303
0110
2002
,
0000
3003
0101
0220
0000
0330
1010
2001
,
0001
0001
0001
0001
0001
0001
0001
3001
,
0110
0000
1001
0000
1100
1001
0011
0110
,
1001
0000
0000
0110
0000
1001
0000
0110
,
0000
0000
0000
1001
0000
0110
0000
1001
,
0000
0000
0000
0110
0000
1001
0000
0110
,
0000
1001
0000
0110
0000
2002
0000
3003
,
1001
0000
0100
0010
0100
0000
0001
1000
0001
0000
0010
0000
0101
0000
0000
0000
,
1000
0010
0100
0001
0000
0000
0010
0100
1000
0000
0022
0000
0000
0000
0033
0000
,
1000
0000
0100
0000
1000
0000
0001
0010
0001
0000
0100
0010
0000
0000
1000
0000
,
0010
0000
0100
0001
0100
0000
0010
0000
1000
0000
0001
0100
0000
0000
0010
0000
,
1000
0000
1000
0000
1001
0000
0010
0100
0001
0000
0001
0000
2002
0000
3003
0000
,
0010
0100
0000
0010
0000
1000
0001
0100
0010
0000
1000
0000
0202
0000
0000
0000
,
0303
1010
0000
0110
1001
0220
0330
0000
,
0001
0000
1000
0010
1000
0000
0001
0000
0100
0000
0001
0200
0000
0000
0300
0000
,
1000
0100
0010
0001
1000
0100
0010
0001
1000
0100
0010
0001
1000
0100
0010
0001
,
1000
0010
0100
0001
1000
0010
0100
0001
1000
0010
0100
0001
1000
0010
0100
0001
,
0000
1000
0200
0000
0310
0002
0000
0000
,
0013
0000
0001
0000
0010
0000
0200
0000
0000
0000
1300
0100
2000
0000
3000
0000
,
0110
0000
0001
0010
0001
0100
0001
0000
1000
0100
1000
0010
1000
0000
0001
0010
,
0100
1000
0001
0010
0100
1000
0001
0100
0010
1000
0001
0100
0010
1000
0100
0010
,
0000
0000
0002
0000
0000
0103
1000
0100
0002
0000
0000
0013
1000
0010
0002
0000
,
0000
0103
1000
0100
0001
0020
0000
0000
0031
0100
0000
0010
1000
0000
0100
1000
,
0001
0010
0001
0010
0001
0010
0001
0100
0001
0100
0001
0100
0010
0100
0010
0100
,
0010
0100
0010
1000
0010
1000
0010
1000
0100
1000
0100
1000
0001
0000
0100
1000
,
0002
0000
0000
0000
0000
1000
0100
0013
,
0000
1001
0000
0000
2002
0000
0000
0000
0000
0000
3003
0000
0000
0000
0000
0000
,
0110
0000
1001
0110
,
1001
0000
0000
0000
,
0001
1000
0010
0100
0001
1000
0010
0100
0001
1000
0010
0100
0001
1000
0010
0100
,
0000
1001
0000
0000
2002
0000
0000
0000
0000
0000
3003
0000
0000
0000
0000
0000
,
0110
0000
0000
0000
0000
0000
1001
2100
,
0000
0000
3100
0210
0000
0000
0310
0021
,
0000
0000
0031
1002
0000
0000
1003
2100
,
0000
0000
0000
0000
0000
0000
0000
3000
,
1002
0000
0000
0000
0003
1100
0110
0011
,
1000
0000
0022
0033
2200
3300
0101
1010
,
0000
0220
0000
0000
0330
0001
1000
0010
,
0100
0001
0010
0100
1000
0101
0000
2020
,
0000
3030
0110
0000
0001
0010
0100
1000
,
0001
0000
2200
3300
0022
0033
1010
0101
,
0000
0220
0000
0000
0330
1000
0001
2020
,
0000
3030
0110
0202
0000
0303
0110
2002
,
0000
3003
0101
0220
0000
0330
1010
2001
,
0001
0001
0001
0001
0001
0001
0001
3001
,
0110
0000
1001
0000
0110
0000
1001
0110
,
0001
0000
2200
3300
0022
0033
1010
0101
,
0000
0220
0000
0000
0330
1000
0001
0100
,
0010
1000
0100
0010
0001
1010
0000
0202
,
0000
0303
0110
0000
1000
0100
0010
0001
,
1000
0000
0022
0033
2200
3300
0101
1010
,
0000
0220
0000
0000
0330
0001
1000
0202
,
0000
0303
0110
2020
0000
3030
0110
2002
,
0000
3003
1010
0220
0000
0330
0101
1002
,
1000
1000
1000
1000
1000
1000
1000
1003
,
0110
0000
1001
0000
0110
0000
1001
0110
,
2002
0000
0000
0000
0000
3003
0110
0000
,
1002
0010
0023
0100
,
0230
0000
1000
0000
2300
0000
0001
0001
,
3002
0010
0023
0100
,
0230
0000
1000
0000
1000
0000
1000
1300
,
2001
0100
3200
0010
,
0320
0000
0001
0000
0032
0000
1000
1000
,
2003
0100
3200
0010
,
0320
0000
0001
0000
0001
0000
0001
0031
,
1001
0000
1000
0001
1000
0100
1000
0001
,
1000
0000
0001
1000
0001
0010
0001
1000
,
0001
0000
1000
0001
1000
0100
1000
0001
,
1000
0100
1000
0002
1000
0000
1000
0003
,
1001
0000
0001
1000
0001
0010
0001
1000
,
0001
0000
1000
0001
1000
0100
1000
0001
,
1000
0000
0001
1000
0001
0010
0001
2100
,
0000
0001
0001
0001
0001
0001
3001
1001
,
0001
0100
0010
1000
0001
0100
0010
1000
0001
0010
0100
1000
0001
0010
0100
1000
,
0000
0110
0000
0000
2002
0000
0000
0000
0000
0000
0000
0000
0000
0000
0000
0000
,
0000
0000
0000
0000
,
0000
0000
0000
0000
,
0000
0000
0000
0000
0000
0000
0000
3003
;

//---------------dance-single - Dance Pad----------------
#NOTES:
     dance-single:
     Dance Pad:
     Medium:
     7:
     0.568,0.816,0.537,0.367,0.181,635.000,111.000,76.000,0.000,0.000:
0000
0000
0000
0000
,
0000
0000
0000
0000
,
0000
0000
0000
0000
,
0000
0000
0000
0000
,
0000
0000
0000
0000
,
0000
0000
0000
0000
,
0000
0000
0000
0000
,
1001
0000
0000
0110
0000
0110
0000
0110
,
0000
0000
0000
1001
0000
1001
0000
1001
,
0000
0000
0000
0110
0000
0110
0000
0110
,
0000
0110
0000
0110
0000
0110
0000
0000
,
1001
0000
1000
0001
1000
0010
1000
0001
,
1000
0000
0001
1000
0001
0100
0001
1000
,
0001
0000
1000
0001
1000
0010
1000
0001
,
1000
0010
1000
0002
1000
0000
1000
0003
,
1002
0000
0023
0000
,
0230
0000
2300
0000
,
3002
0000
0000
0000
0023
0000
0000
0230
,
0000
0000
0000
0000
0000
0000
0300
1100
,
0000
0000
0001
0000
1000
0000
0010
0100
0000
0001
1000
0000
0010
0000
0000
0000
,
0000
0000
1000
0010
1000
0000
0100
0000
0010
0000
0001
0000
0000
0000
1000
0000
,
0020
0000
0230
0000
0300
0001
0100
0010
,
1000
0000
0001
0100
0001
1000
0010
1000
,
0001
0100
0001
0000
0000
0000
1000
0000
0000
0000
0010
0000
0100
0000
0000
0000
,
0001
0000
1000
0010
1000
0000
0100
0000
2000
0000
0000
0000
3000
0000
0001
0000
,
0010
0000
0001
0000
0200
0000
0000
0000
0300
0000
0001
0010
0001
0000
1000
0000
,
0000
0010
0100
0001
0000
0100
0001
1000
,
0000
0000
0001
0000
0010
0000
0100
1000
0000
0000
0001
0000
0100
0000
0010
1000
,
0010
0000
0100
0000
0001
0000
0010
0100
0000
0010
0100
0000
1000
0000
0010
0000
,
1000
0000
0001
0000
0100
0000
0010
0000
0100
0001
0100
0001
1000
0000
0010
0000
,
1000
0100
1000
0000
0010
0000
0100
0001
0100
0000
0002
0000
0000
0000
0003
0000
,
0100
0010
0000
1000
0001
0000
1000
0100
0010
0000
0001
0000
2000
0000
0000
0000
,
3001
1000
0010
0100
0010
1000
0001
1000
,
0010
0000
1000
0100
0000
0010
0001
1000
0100
0010
0001
1000
0000
1000
0000
0000
,
0001
0010
0001
0100
0010
1000
0100
1000
,
0001
0000
0010
0000
0100
0000
1000
0000
0010
0000
0100
0000
0001
0000
0010
0100
,
0010
0000
0001
0000
1000
0000
0020
0000
0000
0000
0230
0000
0000
0000
0301
0010
,
0001
0000
1000
0000
0100
0000
1000
0000
0020
0000
0000
0000
0030
0000
1000
0001
,
1000
0010
0100
0002
0000
1003
0000
0000
,
1100
0000
0022
0000
0000
0000
0033
1000
,
0100
0010
0000
0001
0000
1000
0010
2000
,
0000
0000
0000
0000
3001
0010
0100
1000
,
0001
0100
0010
1000
0100
0010
0001
1000
,
0000
0010
0200
0000
0000
0000
0300
0002
,
0000
0000
0000
0000
1003
0100
0010
0001
,
1000
0000
0011
0000
1100
0000
0001
1000
,
0000
0220
0000
0330
0000
0001
1000
0010
,
0100
0001
0010
0100
1000
0001
0000
2000
,
0000
0000
3000
0000
0001
0010
0100
1000
,
0001
0000
1100
0000
0011
0000
1000
0001
,
0000
0220
0000
0330
0000
1000
0001
1001
,
0000
0000
0110
0110
0000
0000
1001
1001
,
0000
0000
0110
0110
0000
0000
1001
2002
,
0000
0000
0000
3003
,
0110
0000
1001
0000
0110
0000
0001
1000
,
0010
0000
0000
1001
0000
1001
0000
1001
,
0000
0000
0000
0110
0000
0110
0000
0110
,
0000
0000
0000
1001
0000
1001
0000
1001
,
0000
1001
0000
1001
0000
1001
0000
0000
,
1000
0000
0100
0010
0100
0000
0001
1000
0001
0000
0010
0000
0001
0000
0000
0000
,
1000
0010
0100
0001
0000
0000
0010
0100
1000
0000
0002
0000
0000
0000
0003
0000
,
1000
0000
0100
0000
1000
0000
0001
0010
0001
0000
0100
0010
0000
0000
1000
0000
,
0010
0000
0100
0001
0100
0000
0010
0000
1000
0000
0001
0100
0000
0000
0010
0000
,
1000
0000
1000
0000
1000
0000
0010
0100
0001
0000
0001
0000
0001
0000
1000
0000
,
0010
0100
0000
0010
0000
1000
0001
0100
0010
0000
1000
0000
0002
0000
0000
0000
,
0003
1000
0000
0010
0100
0020
0000
0030
,
1000
0000
0001
0100
0001
0000
1000
0000
0010
0000
0100
0001
0000
0000
0000
0000
,
1000
0010
0001
0010
1000
0010
0001
0010
,
1000
0100
0001
0100
1000
0100
0001
0100
,
0000
1000
0100
0000
0010
0002
0000
0000
,
0013
0000
0001
0000
0010
0000
0100
0000
0000
0000
1000
0100
1000
0000
0000
0000
,
0001
0000
1000
0100
1000
0100
1000
0000
0001
0010
0001
0010
0001
0000
1000
0000
,
0100
0001
0100
1000
0010
0001
0010
1000
,
0000
0002
0000
1003
2001
0000
3001
1002
,
0000
0000
1003
0000
0001
0010
0000
0000
0001
0100
0000
0010
1000
0000
0100
1000
,
0001
0010
0001
0010
0001
0010
0001
1000
0001
1000
0001
1000
0100
1000
0100
1000
,
0100
1000
0001
1000
0001
1000
0001
1000
0010
1000
0010
1000
0010
0000
0100
0000
,
0002
0000
0000
0000
0000
1003
0100
0010
,
0000
0001
0000
0000
2002
0000
0000
0000
0000
0000
3003
0000
0000
0000
0000
0000
,
1001
0000
0110
0110
,
0110
0000
0000
0000
,
1001
0000
0000
0000
0000
0001
0010
0100
,
0000
1000
0000
0000
2002
0000
0000
0000
0000
0000
3003
0000
0000
0000
0000
0000
,
1001
0000
0000
0000
0000
0000
1100
1100
,
0000
0000
1010
1010
0000
0000
0110
0110
,
0000
0000
0101
0101
0000
0000
0011
0011
,
0000
0000
0000
0000
,
1001
0000
0000
0000
0000
1000
0100
0010
,
0001
0000
1100
0000
0011
0000
1000
0001
,
0000
0220
0000
0330
0000
1000
0001
0100
,
0010
1000
0100
0010
0001
1000
0000
0002
,
0000
0000
0003
0000
1000
0100
0010
0001
,
1000
0000
0011
0000
1100
0000
0001
1000
,
0000
0220
0000
0330
0000
0001
1000
1001
,
0000
0000
0110
0110
0000
0000
1001
1001
,
0000
0000
0110
0110
0000
0000
1001
2002
,
0000
0000
0000
3003
,
0110
0000
1001
0000
0110
0000
1000
0001
,
1000
0000
0011
0000
1100
0000
0001
1000
,
0000
0220
0000
0330
0000
0001
1000
0010
,
0100
0001
0010
0100
1000
0001
0000
2000
,
0000
0000
3000
0000
0001
0010
0100
1000
,
0001
0000
1100
0000
0011
0000
1000
0001
,
0000
0220
0000
0330
0000
1000
0001
1001
,
0000
0000
0110
0110
0000
0000
1001
1001
,
0000
0000
0110
0110
0000
0000
1001
2002
,
0000
0000
0000
3003
,
0110
0000
1001
0000
0110
0000
0001
2000
,
0002
0000
0000
0000
0000
3003
1001
0000
,
1002
0000
0023
0000
,
0230
0000
2300
0000
,
3002
0000
0023
0000
,
0230
0000
0000
0300
,
2001
0000
3200
0000
,
0320
0000
0032
0000
,
2003
0000
3200
0000
,
0320
0000
0000
0030
,
1000
0000
1000
0001
1000
0100
1000
0001
,
1000
0000
0001
1000
0001
0010
0001
1000
,
0001
0000
1000
0001
1000
0100
1000
0001
,
1000
0100
1000
0002
1000
0000
1000
0003
,
1001
0000
0001
1000
0001
0010
0001
1000
,
0001
0000
1000
0001
1000
0100
1000
0001
,
1000
0000
0001
1000
0001
0010
0001
2000
,
0000
0000
0000
0000
0000
0000
3000
1001
,
0010
0100
0010
0100
0010
0100
0010
0100
0010
0100
0010
0100
0010
0100
0010
0100
,
0000
2002
0000
0000
,
0000
0000
0000
0000
,
0000
0000
0000
0000
,
0000
0000
0000
0000
0000
0000
0000
3003
;

//---------------dance-single - Copied from Dance Pa----------------
#NOTES:
     dance-single:
     Copied from Dance Pa:
     Easy:
     4:
     0.325,0.408,0.015,0.135,0.000,439.000,3.000,28.000,0.000,0.000:
0000
0000
0000
0000
,
0000
0000
0000
0000
,
0000
0000
0000
0000
,
0000
0000
0000
0000
,
0000
0000
0000
0000
,
0000
0000
0000
0000
,
0000
0000
0000
0000
,
1000
0000
0000
0001
0000
1000
0000
0001
,
0000
0000
0000
1000
0000
0001
0000
1000
,
0000
0000
0000
0001
0000
1000
0000
0001
,
0000
1000
0000
0001
0000
1000
0000
0000
,
0010
0000
0000
0100
0000
0010
0000
0100
,
0000
0000
0000
0010
0000
0100
0000
0010
,
0000
0000
0000
0100
0000
0010
0000
0100
,
0000
0010
0000
0100
0000
0000
0000
0000
,
0002
0003
0020
0030
,
0200
0300
2000
3000
,
0002
0000
0003
0000
0020
0000
0030
0200
,
0000
0000
0000
0000
0000
0000
0000
1300
,
0000
0001
1000
0010
1000
0001
0100
0000
,
0010
1000
0010
1000
,
0001
0100
0001
0100
,
0010
0100
0010
0100
,
0001
1000
0001
1000
,
0100
0010
0100
0010
,
0001
1000
0001
1000
,
0100
1000
0100
1000
,
0001
0010
0001
0010
,
0001
1000
0001
0000
1000
0001
1000
0000
,
0010
0100
0010
0000
0100
0010
0100
0000
,
0001
0010
0001
0000
0010
0001
0010
0000
,
0100
1000
0100
0000
1000
0100
1000
0000
,
0001
0100
0001
0000
0100
0001
0100
0000
,
0010
1000
0010
0000
1000
0010
1000
0000
,
0100
0010
0100
0000
0010
0100
0010
0000
,
0001
1000
0001
0000
1000
0001
1000
0000
,
0010
0100
0010
0100
,
0001
0100
0001
0100
,
0001
1000
0001
1000
,
0100
1000
0100
1000
,
0100
0010
0100
0010
,
0001
0010
0001
0010
,
0001
0000
1000
0000
0001
0000
1000
0010
,
0000
0100
0001
0000
0000
0000
0000
1001
,
0000
0000
0000
0000
0000
1000
0100
0010
,
0001
1000
0001
1000
,
0010
1000
0010
1000
,
0001
0100
0001
0100
,
0001
1000
0001
1000
,
0010
0100
0010
0100
,
0010
0000
1000
0000
0001
0000
0100
0100
,
0000
0000
0010
0010
0000
0000
1000
1000
,
0000
0000
0001
0001
0000
0000
0100
0200
,
0000
0000
0000
0300
,
0010
0100
0001
1000
,
0010
0000
0000
0100
0000
0010
0000
0100
,
0000
0000
0000
0010
0000
0100
0000
0010
,
0000
0000
0000
0100
0000
0010
0000
0100
,
0000
0010
0000
0100
0000
0010
0000
0000
,
1000
0001
1000
0000
0001
1000
0001
0000
,
0010
0100
0010
0000
0100
0010
0100
0000
,
1000
0010
1000
0000
0010
1000
0010
0000
,
0100
0001
0100
0000
0001
0100
0001
0000
,
1000
0100
1000
0000
0100
1000
0100
0000
,
0010
0001
0010
0000
0001
0010
0001
0000
,
0100
0010
0100
0000
0010
0100
0010
0000
,
1000
0001
1000
0000
0001
1000
0001
0000
,
1000
0001
1000
0001
,
1000
0001
1000
0001
,
0100
0010
0100
0010
,
0100
0010
0100
0010
,
1000
0001
1000
0001
,
1000
0000
0001
0000
1000
0000
0001
1000
,
0000
0000
0000
0001
0000
0000
0000
1000
,
0000
0000
0000
0001
0000
0000
0000
1000
,
0010
0100
0010
0100
0010
0100
0010
0100
,
0010
0100
0010
0100
0010
0100
0010
0000
,
1001
0000
0000
0000
0000
1000
0100
0010
,
0000
0001
0000
0000
,
1000
0000
0001
1000
,
0001
0000
0000
0000
,
1000
0000
0000
0000
0000
0001
0010
0100
,
0000
1000
0000
0000
,
0001
0000
0000
0000
0000
0000
1000
1000
,
0000
0000
0010
0010
0000
0000
0100
0100
,
0000
0000
0001
0001
0000
0000
1000
2000
,
0000
0000
0000
3000
,
0001
0100
0010
1000
,
0001
0100
0001
0100
,
0010
0100
0010
0100
,
0010
1000
0010
1000
,
0001
1000
0001
1000
,
0001
0010
0001
0010
,
0100
0000
1000
0000
0100
0000
1000
1000
,
0000
0000
0010
0010
0000
0000
0100
0100
,
0000
0000
0001
0001
0000
0000
1000
2000
,
0000
0000
0000
3000
,
0010
0100
0001
1000
,
0010
1000
0010
1000
,
0001
1000
0001
1000
,
0001
0100
0001
0100
,
0010
0100
0010
0100
,
0001
1000
0001
1000
,
0010
0000
0100
0000
0010
0000
0100
0100
,
0000
0000
0001
0001
0000
0000
1000
1000
,
0000
0000
0010
0010
0000
0000
0100
0200
,
0000
0000
0000
0300
,
0001
1000
0010
0100
,
0001
0000
0000
1000
,
0002
0003
0020
0030
,
0200
0300
2000
3000
,
0002
0003
0020
0030
,
0200
0000
0000
0300
,
2000
3000
0200
0300
,
0020
0030
0002
0003
,
2000
3000
0200
0300
,
0020
0000
0000
0030
,
0001
0000
0000
1000
0000
0001
0000
1000
,
0000
0000
0000
0001
0000
1000
0000
0001
,
0000
0000
0000
1000
0000
0001
0000
1000
,
0000
0001
0000
1000
0000
0000
0000
0000
,
0010
0000
0000
0100
0000
0010
0000
0100
,
0000
0000
0000
0010
0000
0100
0000
0010
,
0000
0000
0000
0100
0000
0010
0000
0200
,
0000
0000
0000
0000
0000
0000
0000
0310
,
0000
0000
0000
0000
,
0000
2002
0000
0000
,
0000
0000
0000
0000
,
0000
0000
0000
0000
,
0000
0000
0000
0000
0000
0000
0000
3003
;

//---------------dance-single - Dance Pad----------------
#NOTES:
     dance-single:
     Dance Pad:
     Beginner:
     1:
     0.129,0.157,0.082,0.034,0.000,163.000,17.000,7.000,0.000,0.000:
0000
0000
0000
0000
,
0000
0000
0000
0000
,
0000
0000
0000
0000
,
0000
0000
0000
0000
,
0000
0000
0000
0000
,
0000
0000
0000
0000
,
0000
0000
0000
0000
,
1001
0000
0000
0000
,
0000
0000
0000
0000
,
0000
0000
0000
0000
,
0000
0000
0000
0000
,
0110
0000
0000
0000
,
0000
0000
0000
0000
,
0000
0000
0000
0000
,
0000
0000
0000
0000
,
0001
0000
0010
0000
,
0100
0000
1000
0000
,
0001
0000
0000
0000
0010
0000
0000
0200
,
0000
0000
0000
0000
0000
0000
0000
0300
,
0000
0000
0000
0000
,
1000
0000
0000
0000
,
0010
0000
0000
0000
,
0100
0000
0000
0000
,
0001
0000
0000
0000
,
0010
0000
0000
0000
,
1000
0000
0000
0000
,
0001
0000
0000
0000
,
0100
0000
0000
0000
,
0001
0000
1000
0000
,
0010
0000
0100
0000
,
0001
0000
1000
0000
,
0010
0000
0100
0000
,
0010
0000
1000
0000
,
0001
0000
0100
0000
,
0010
0000
1000
0000
,
0001
0000
0100
0000
,
0010
0000
0000
0000
,
0100
0000
0000
0000
,
0001
0000
0000
0000
,
1000
0000
0000
0000
,
0001
0000
0000
0000
,
0100
0000
0000
0000
,
0010
0000
0000
0000
0000
0000
0000
1000
,
0000
0000
0000
0000
0000
0000
0000
1001
,
0000
0000
0000
0000
,
0001
0000
1000
0000
,
0001
0000
1000
0000
,
0010
0000
0100
0000
,
0010
0000
0100
0000
,
0001
0000
1000
0000
,
0001
0000
0000
0000
1000
0000
0000
0001
,
0000
0000
0000
1000
0000
0000
0000
0001
,
0000
0000
0000
1000
0000
0000
0000
0001
,
0000
0000
0000
0000
,
0110
0000
0000
0000
,
1001
0000
0000
0000
,
0000
0000
0000
0000
,
0000
0000
0000
0000
,
0000
0000
0000
0000
,
0100
0000
0010
0000
,
1000
0000
0001
0000
,
0100
0000
0010
0000
,
1000
0000
0001
0000
,
1000
0000
0010
0000
,
0100
0000
0001
0000
,
1000
0000
0010
0000
,
0100
0000
0001
0000
,
0110
0000
0000
0000
,
0000
0000
0000
0000
,
0000
0000
0000
0000
,
0000
0000
0000
0000
,
1001
0000
0000
0000
,
0000
0000
0000
0000
0000
0000
0000
0010
,
0000
0000
0000
0100
0000
0000
0000
0010
,
0000
0000
0000
0100
0000
0000
0000
0010
,
0000
0000
0000
0000
0000
0000
0000
0100
,
0000
0000
0000
0000
,
1001
0000
0000
0000
,
0000
1001
0000
0000
,
0000
0000
0000
0000
,
1001
0000
0000
0000
,
1001
0000
0000
0000
,
0000
0110
0000
0000
,
0110
0000
0000
0000
0000
0000
0000
0100
,
0000
0000
0000
0010
0000
0000
0000
0100
,
0000
0000
0000
0010
0000
0000
0000
0100
,
0000
0000
0000
0000
,
0010
0000
0000
0000
,
1000
0000
0001
0000
,
1000
0000
0001
0000
,
0100
0000
0010
0000
,
0100
0000
0010
0000
,
1000
0000
0001
0000
,
1000
0000
0000
0000
0001
0000
0000
1000
,
0000
0000
0000
0001
0000
0000
0000
1000
,
0000
0000
0000
0001
0000
0000
0000
1000
,
0000
0000
0000
0000
,
0110
0000
0000
0000
,
0001
0000
1000
0000
,
0001
0000
1000
0000
,
0010
0000
0100
0000
,
0010
0000
0100
0000
,
0001
0000
1000
0000
,
0001
0000
0000
0000
1000
0000
0000
0001
,
0000
0000
0000
1000
0000
0000
0000
0001
,
0000
0000
0000
1000
0000
0000
0000
0001
,
0000
0000
0000
0000
,
0110
0000
0000
0000
,
1001
0000
0000
0000
,
0001
0000
0010
0000
,
0100
0000
1000
0000
,
0001
0000
0010
0000
,
0200
0000
0300
0000
,
1000
0000
0100
0000
,
0010
0000
0001
0000
,
1000
0000
0100
0000
,
0020
0000
0030
0000
,
0001
0000
0010
0000
,
0100
0000
1000
0000
,
0100
0000
0010
0000
,
0002
0000
0003
0000
,
1000
0000
0100
0000
,
0010
0000
0001
0000
,
0010
0000
0000
0000
0100
0000
0000
2000
,
0000
0000
0000
0000
0000
0000
0000
3000
,
0000
0000
0000
0000
,
0000
2002
0000
0000
,
0000
0000
0000
0000
,
0000
0000
0000
0000
,
0000
0000
0000
0000
0000
0000
0000
3003
;
